website statistics
Sunflower.S01.2021.초고화질.WEB-DL.Hindi.AAC.2.0.x264 - SunGeorge > 외국티비 > 인터넷의 시작 더토렌트 싱가폴
홈 > 티비 > 외국티비
외국티비
 [구글검색] 구글에서 더토렌트 검색 - 구글에서 토렌트를 검색하실 때에 검색어 뒤에 더토렌트를 꼭 붙여서 검색하세요.     더토렌트에서 광고중인 웹에 문제가 있다면 상단에 나와 있는 운영자 이메일로 연락 주십시오.     사용자님의 다운로드가 완료될 때까지 저희가 함께하겠습니다. 편안하고 즐거운 시간 되십시오.

웹하드 파일몽

Sunflower.S01.2021.초고화질.WEB-DL.Hindi.AAC.2.0.x264 - SunGeorge
  • 파일 설명:     Quote: Sunflower.S01.2021.초고화질.WEB-DL.Hindi.AAC.2.0.x264 - SunGeorge Sunflower.S01.2021.초고화질.WEB-DL.Hindi.AAC.2.0.x264 - SunGeorge Quote: Sunflower.S01.2021.초고화질.WEB-DL.Hindi.AAC.2.0.x264 - SunGeorge Code:General Complete name : Sunflower.S01E01.초고화질.WEB-DL.Hindi.AAC.2.0.x264.mkv Format : Matroska Format version : Version 4 File size : 722 MiB Duration : 42 min 41 s Overall bit rate mode : Variable Overall bit rate : 2 365 kb/s Movie name : MovieAIO.me Encoded date : UTC 2021-06-11 13:30:54 Writing application : mkvmerge v57.0.0 (Till The End) 64-bit Writing library : libebml v1.4.2 + libmatroska v1.6.4 Video ID : 1 Format : AVC Format/Info : Advanced Video Codec Format profile : [email protected] Format settings : CABAC / 4 Ref Frames Format settings, CABAC : Yes Format settings, Reference frames : 4 frames Codec ID : V_MPEG4/ISO/AVC Duration : 42 min 41 s Bit rate mode : Variable Bit rate : 2 298 kb/s Maximum bit rate : 6 000 kb/s Width : 1 920 pixels Height : 1 080 pixels Display aspect ratio : 16:9 Frame rate mode : Constant Frame rate : 25.000 FPS Standard : PAL Color space : YUV Chroma subsampling : 4:2:0 Bit depth : 8 bits Scan type : Progressive Bits/(Pixel*Frame) : 0.044 Stream size : 702 MiB (97%) Default : Yes Forced : No Color range : Limited Color primaries : BT.709 Transfer characteristics : BT.709 Matrix coefficients : BT.709 Audio ID : 2 Format : AAC LC Format/Info : Advanced Audio Codec Low Complexity Codec ID : A_AAC-2 Duration : 42 min 41 s Bit rate : 64.0 kb/s Channel(s) : 2 channels Channel layout : L R Sampling rate : 48.0 kHz Frame rate : 46.875 FPS (1024 SPF) Compression mode : Lossy Stream size : 19.5 MiB (3%) Language : Hindi Default : Yes Forced : No Text ID : 3 Format : UTF-8 Codec ID : S_TEXT/UTF8 Codec ID/Info : UTF-8 Plain Text Duration : 38 min 43 s Bit rate : 47 b/s Count of elements : 545 Stream size : 13.6 KiB (0%) Title : English Language : English Default : Yes Forced : No Sunflower.S01.2021.초고화질.WEB-DL.Hindi.AAC.2.0.x264 - SunGeorge…
  • 인기 연관 검색어 :    
  • 관련 자료:    Sunflower (2021) ZEE 5 Hindi 고화질 WEBRip x264 AAC ESub TamilMV    Sunflower S01 2021 초고화질 WEB-DL Hindi AAC 2 0 x264 - SunGeorge
  • 같은 시각 자료:    Manifest.S03E12E13.고화질.HDTV.x264-SYNCOPY    Lupin.S02.iTALIAN.MULTI.초고화질.WEB.x264-MeM
무료 다운로드 링크 직접 다운로드 링크 무제한 다운로드 링크 초고속 다운로드 링크

Sunflower.S01.2021.초고화질.WEB-DL.Hindi.AAC.2.0.x264 - SunGeorge





Quote:


Sunflower.S01.2021.초고화질.WEB-DL.Hindi.AAC.2.0.x264 - SunGeorge

42UeLEMwxOgtNXNjyqQ3l23VK5P.jpg

Untitled-1-3.png





Sunflower.S01.2021.초고화질.WEB-DL.Hindi.AAC.2.0.x264 - SunGeorge





Quote:


Sunflower.S01.2021.초고화질.WEB-DL.Hindi.AAC.2.0.x264 - SunGeorge

42UeLEMwxOgtNXNjyqQ3l23VK5P.jpg

Untitled-1-3.png







Code:

General
Complete name : Sunflower.S01E01.초고화질.WEB-DL.Hindi.AAC.2.0.x264.mkv
Format : Matroska
Format version : Version 4
File size : 722 MiB
Duration : 42 min 41 s
Overall bit rate mode : Variable
Overall bit rate : 2 365 kb/s
Movie name : MovieAIO.me
Encoded date : UTC 2021-06-11 13:30:54
Writing application : mkvmerge v57.0.0 (Till The End) 64-bit
Writing library : libebml v1.4.2 + libmatroska v1.6.4

Video
ID : 1
Format : AVC
Format/Info : Advanced Video Codec
Format profile : [email protected]
Format settings : CABAC / 4 Ref Frames
Format settings, CABAC : Yes
Format settings, Reference frames : 4 frames
Codec ID : V_MPEG4/ISO/AVC
Duration : 42 min 41 s
Bit rate mode : Variable
Bit rate : 2 298 kb/s
Maximum bit rate : 6 000 kb/s
Width : 1 920 pixels
Height : 1 080 pixels
Display aspect ratio : 16:9
Frame rate mode : Constant
Frame rate : 25.000 FPS
Standard : PAL
Color space : YUV
Chroma subsampling : 4:2:0
Bit depth : 8 bits
Scan type : Progressive
Bits/(Pixel*Frame) : 0.044
Stream size : 702 MiB (97%)
Default : Yes
Forced : No
Color range : Limited
Color primaries : BT.709
Transfer characteristics : BT.709
Matrix coefficients : BT.709

Audio
ID : 2
Format : AAC LC
Format/Info : Advanced Audio Codec Low Complexity
Codec ID : A_AAC-2
Duration : 42 min 41 s
Bit rate : 64.0 kb/s
Channel(s) : 2 channels
Channel layout : L R
Sampling rate : 48.0 kHz
Frame rate : 46.875 FPS (1024 SPF)
Compression mode : Lossy
Stream size : 19.5 MiB (3%)
Language : Hindi
Default : Yes
Forced : No

Text
ID : 3
Format : UTF-8
Codec ID : S_TEXT/UTF8
Codec ID/Info : UTF-8 Plain Text
Duration : 38 min 43 s
Bit rate : 47 b/s
Count of elements : 545
Stream size : 13.6 KiB (0%)
Title : English
Language : English
Default : Yes
Forced : No




Sunflower.S01.2021.초고화질.WEB-DL.Hindi.AAC.2.0.x264 - SunGeorge


번역하기: 한국 한국어


<< 이 게시판에서 관련된 자료 목록 >>
 [구글검색] 구글에서 더토렌트 검색 - 구글에서 토렌트를 검색하실 때에 검색어 뒤에 더토렌트를 꼭 붙여서 검색하세요.     더토렌트에서 광고중인 웹에 문제가 있다면 상단에 나와 있는 운영자 이메일로 연락 주십시오.     사용자님의 다운로드가 완료될 때까지 저희가 함께하겠습니다. 편안하고 즐거운 시간 되십시오.

웹하드 찐플

  

  

현재 인기있는 자료


외국티비 인기글


인기 검색어


실시간 검색어


3일의 인기글


새댓글


Facebook Twitter GooglePlus KakaoStory NaverBand